#TITLE:Theme of Adol;
#SUBTITLE:Ys I & II;
#ARTIST:Ryo Yonemitsu;
#TITLETRANSLIT:;
#SUBTITLETRANSLIT:;
#ARTISTTRANSLIT:;
#CREDIT:;
#BANNER:Theme of Adol.jpg;
#BACKGROUND:theme of adol-bg.jpg;
#LYRICSPATH:;
#CDTITLE:!cdtitle.png;
#MUSIC:Theme of Adol.mp3;
#OFFSET:1.640;
#SAMPLESTART:48.787;
#SAMPLELENGTH:20.000;
#SELECTABLE:YES;
#BPMS:0.000=138.410;
#STOPS:;
#BGCHANGES:;
// cache tags:
#FIRSTBEAT:4.000;
#LASTBEAT:261.000;
#SONGFILENAME:Songs/Music V.I.P ^_^/Theme of Adol (Anobody)/Theme of Adol.sm;
#HASMUSIC:1;
#HASBANNER:1;
#MUSICLENGTH:114.528;
// end cache tags

//---------------dance-single - ----------------
#NOTES:
     dance-single:
     :
     Challenge:
     12:
     1.000,1.000,1.000,1.000,0.856,554.000,248.000,220.000,0.000,77.000:




0000
0000
0000
0000
,
1001
0000
0110
0000
1000
0100
0002
0000
0010
0100
1010
0003
1000
0010
0002
0000
,
2003
0000
0100
0000
3011
0000
0000
0000
0002
0000
0013
0000
0200
0000
0000
0000
1300
0000
0100
0000
0011
0000
0000
0000
0100
0000
1000
0000
0002
0000
0000
0003
,
2000
0000
0100
3000
0011
0000
0000
0000
0002
0000
0010
0000
2000
0000
0003
0000
0001
0000
0010
0000
0101
0000
0000
0000
0100
0000
0010
0000
0001
0000
0000
0000
,
0001
0010
0101
3000
0020
0000
0000
0030
1000
1000
1000
1000
0000
0000
0001
0001
,
0001
0011
1100
0000
0011
0000
2100
0000
0100
3001
0110
0000
1000
0100
0002
0000
,
2003
0100
3011
0000
0002
0100
0023
0000
1000
0130
0011
0000
0100
0010
0002
0000
,
2003
0100
3011
0000
0002
0100
0023
0000
2030
0100
0011
0000
0001
0010
0100
0000
,
0100
0000
0010
0000
0101
3000
0000
0000
0020
0000
0000
0000
0000
0000
0030
0000
1001
0000
0010
0000
1001
0000
0010
0000
0000
0000
0011
0000
1000
0000
0011
0000
,
0011
0000
1000
0000
0011
0000
0011
0000
0011
0000
1000
0000
0012
0000
0000
0000
0000
0003
2100
0000
0011
0000
0000
3000
0012
0000
0000
0000
0000
0000
0003
0000
,
0001
0000
1100
1000
1000
1000
0012
0000
0003
2100
0011
3000
0012
0000
0003
0000
,
0001
0000
0011
0010
0010
0010
0002
0000
0000
0000
0123
0000
0000
0000
0230
0000
,
2300
0000
3012
0000
0123
0000
0000
0030
1100
0000
0011
0011
0011
0000
0012
0110
,
0113
0000
0020
0000
1130
1100
2100
0000
0000
3012
1100
0003
2100
0000
0000
0000
,
0000
3000
0011
0001
0001
0001
2010
0000
0000
3102
1010
0003
2010
0000
0000
0000
,
0000
3000
0110
0010
0010
0010
2100
0000
0000
0000
3110
0000
0000
0000
0012
0003
,
0120
0030
1200
0300
0012
0000
0003
0011
1100
0000
0011
1100
0000
0000
1001
1001
,
1001
0000
1100
0000
0011
0011
0022
0000
0000
2233
3311
0000
0000
0000
0220
0000
,
0330
2020
3131
0000
0000
0000
2002
0000
3003
0220
1331
0000
0000
0000
0220
0000
,
0330
0000
2002
0000
3113
0000
1000
0000
0100
0000
0010
0000
2002
0000
0000
0000
0000
3003
2200
0000
3311
0000
0000
0000
0000
0000
0000
0000
2002
0000
0000
0000
,
0000
0003
3220
0000
1331
0000
0000
0000
0000
0000
0000
0000
2002
0000
0000
0000
0000
3003
2020
0000
3131
0000
0000
0000
0000
0000
0000
0000
0011
0000
0000
0000
,
1100
0000
1100
1100
1100
0000
0002
0000
0000
0000
1010
0000
0000
0000
2103
0000
,
3210
0000
0000
0000
0312
0000
0000
0000
2103
0000
0000
0000
0000
0000
0000
0000
0000
0000
0000
0000
3011
0000
0000
0000
0000
0000
0000
0000
0220
0330
0110
0000
,
0110
0000
2100
0000
0000
3000
0002
0000
0000
0000
0110
0000
0000
0003
1000
0000
,
0100
0000
0000
0000
0000
0000
0110
0000
0000
0110
0000
0000
0110
0000
0000
0001
0000
0000
1100
0000
0000
0000
0000
0000
1010
0000
0000
0100
0000
0000
0000
0000
0000
0010
0000
0000
0100
0000
1000
0000
0100
0000
0010
0000
0001
0000
0010
0000
,
0100
0000
1000
0000
0100
0000
0011
0000
0000
0011
0000
0000
0011
0000
0000
0100
0000
0000
2000
0000
0000
0000
0000
0000
0100
0000
0000
0010
0000
0000
3101
0000
0000
0000
0000
0000
0010
0000
0000
0001
0000
0000
0200
0000
0000
0000
0000
0000
,
0320
0001
1130
0000
2000
0100
0002
3000
0010
0100
1010
0000
0013
0100
0020
0000
,
2030
3100
0011
0000
0002
0010
2003
0000
0001
0010
0101
0000
0001
0010
0100
0000
,
0100
0010
0101
3000
0020
0000
0000
0030
0001
0001
0001
0001
0000
0000
0010
0010
,
0010
0011
1100
0000
0110
0000
2100
0000
0010
0001
0110
3000
0001
0100
2000
0000
,
3002
1000
0113
0000
0020
0100
2030
0000
0010
0001
3110
0000
0100
0001
0200
0000
,
0320
0001
1130
0000
0002
1003
0020
0030
0002
0010
1100
0000
1000
0100
0010
0000
,
0010
0100
1010
0003
0200
0000
0000
0300
1001
0010
1001
0010
0000
1100
0001
1100
,
1100
0001
1100
1100
1100
0001
2100
0000
0000
3012
1100
0003
2100
0000
0000
3000
,
0010
0000
1100
1000
1000
1000
0012
0000
0003
2100
0011
3000
0012
0000
0003
0000
,
0001
0000
0011
0010
0010
0010
0002
0000
0000
0000
0123
0000
0000
0000
0230
0000
,
2300
0000
3012
0000
0023
0000
0000
0030
1100
0000
0110
1000
0100
0000
2000
0001
,
3100
0000
0020
0000
1130
1100
2100
0000
0000
3012
1100
0003
1200
0000
0000
0000
,
0000
0300
0001
0001
0001
0001
2100
0000
0000
3012
1100
0003
2100
0000
0000
0000
,
0000
0000
3010
0010
0010
0010
2100
0000
0000
0000
3210
0000
0000
0000
0012
0300
,
0123
0000
2130
0000
3210
0000
0300
0011
1100
0000
0011
1100
0000
0000
1001
1001
,
1001
0000
1100
0000
0011
0011
0022
0000
0033
2200
3311
0000
0000
0000
0220
0000
,
0330
0022
1133
0000
0000
0000
2002
0000
3003
0220
1331
0000
0000
0000
0220
0000
,
0330
2002
3113
0001
0010
0100
2002
0000
3003
2200
3311
0000
0000
0000
2200
0000
,
3300
0022
1133
0000
0000
0000
2002
0000
3003
0220
1331
0000
0000
0000
0022
0033
,
1100
0000
0011
0011
0011
0000
2000
0000
0000
0000
0110
0000
0000
3000
0012
0000
,
0123
0000
0000
0000
2130
0000
0000
0000
3012
0000
0000
0000
0000
0000
0000
0000
0000
0000
0000
0000
0110
0000
1000
0000
0013
0000
0000
0000
2200
3300
1100
0000
,
1100
0000
0000
0000
0012
0000
0000
0000
0000
0000
0000
0003
0020
0000
0000
0000
0000
0000
0000
0000
1100
0000
0000
0000
0000
0000
0000
0000
1000
0000
0000
0000
,
1030
0000
0011
0000
0110
0000
0001
0001
0001
0001
1000
0000
0110
0000
0011
0011
,
0011
0000
1100
0000
1100
1100
2200
0000
0000
3300
0000
0000
0000
0000
0000
0000
,
0000
0000
0010
0001
0000
0100
0000
1000
0001
1000
0001
1000
0001
1000
0100
0010
,
0100
0010
0001
0010
0100
2000
0000
0000
3000
0000
0000
0000
0000
0000
0000
0000
,
1000
0000
0100
0000
0010
0000
0001
0000
1000
0000
0100
0000
0020
0000
0000
0000
0000
0000
0000
0030
0100
0000
0000
0000
0100
0000
2000
0000
0000
0000
0000
0000
,
0000
0000
0000
3020
0000
0000
0000
0000
,
0000
0000
0000
0030
0000
0002
0000
0000
,
0000
0000
0000
0000
0000
0000
0003
0000
0000
0000
0000
2000
0000
0000
3000
0002
0000
0000
0000
0000
0000
0000
0000
0003
0000
0000
0000
0000
0000
0000
0000
0000
,
0000
0000
0000
0000
0000
0000
0000
0000
2000
0000
0000
0000
3002
0000
1000
0003
0110
0000
1000
0000
0110
0000
0001
0000
1000
0000
0110
0000
0001
0000
1100
0000
,
1100
0001
1100
1100
1100
0000
0022
0033
0000
0000
0000
0000
2000
3002
0203
0300
,
0020
0030
0002
0000
0000
0200
0323
0030
0200
0000
0300
0000
0000
0000
0000
0000
,
2000
0000
3200
0000
0320
0000
0032
0023
0000
0000
0000
0000
0000
0000
0000
0000
,
0000
0000
0032
0000
0003
0000
0002
0000
0003
0000
0020
0000
0000
0030
0200
0000
2300
0000
3200
0000
0320
0000
0032
0000
0023
0000
0000
0000
0000
0000
0000
0000
,
0000
0000
0000
0030
2000
3200
2300
3000
0200
0320
0032
0023
0030
0200
0000
0300
,
2000
0000
3200
0000
0300
0000
0020
0000
0030
0000
0200
0000
0000
0000
0300
0000
0000
0000
0000
0000
0000
0000
0000
0002
0000
0000
0003
0020
0000
0000
0030
0000
,
0000
0000
0000
0000
0000
0000
0000
0000
0000
0000
0000
2000
0000
0000
0000
0000
3000
0200
0000
0000
0000
0000
0300
0000
0000
0000
0000
0000
0000
0000
0000
0000
0000
0000
0000
0000
0000
0000
0000
0000
0000
0000
1000
0000
0000
0001
0000
0000
,
1000
0001
1000
0001
0100
0010
0100
0010
1001
0000
0110
0110
0000
0011
0000
1100
,
1100
0000
0011
0011
0011
0000
0000
0000
0000
0000
0000
0000
0000
0000
0000
0000
;

//---------------dance-single - ----------------
#NOTES:
     dance-single:
     :
     Hard:
     11:
     1.000,1.000,1.000,1.000,0.847,545.000,169.000,219.000,0.000,46.000:

0000
0000
0000
0000
,
1001
0000
0110
0000
0010
0100
0002
0000
1003
0100
0010
0000
0001
0010
0200
0000
,
2300
0000
0010
0000
3100
0000
0000
0000
0002
0000
0013
0000
0200
0000
0000
0000
1300
0000
0100
0000
0010
0000
0000
0000
0100
0000
1000
0000
0002
0000
0000
0003
,
2000
0000
0100
3000
0010
0000
0000
0000
0002
0000
0100
0000
0023
0000
0000
0000
1030
0000
0100
0000
0010
0000
0000
0000
0001
0000
1000
0000
0100
0000
0000
0000
,
0010
0100
1000
0000
0020
0000
0000
0030
1000
1000
1000
1000
0000
0000
0001
0001
,
0001
0001
1100
0000
0001
0000
2000
0000
3001
0010
0100
0000
1000
0100
0020
0000
,
0230
0010
0301
0000
0002
0100
0023
0000
1030
0100
0010
0000
0001
1000
0020
0000
,
2030
0100
3010
0000
0002
0100
0023
0000
2030
0100
3010
0000
0001
0100
0010
0000
,
0001
0010
0100
0000
2000
0000
0000
0000
3001
0001
0001
0001
0000
0000
1000
1000
,
0100
0100
0010
0010
0001
0001
0210
0000
0300
1002
0000
0003
0120
0000
0000
0030
,
0001
0000
1100
1000
1000
1000
0012
0000
0003
2100
0000
3000
0012
0000
0003
0000
,
0001
0000
0011
0010
0010
0010
0002
0000
0000
0000
0123
0000
0000
0000
0230
0000
,
2300
0000
3012
0000
0213
0000
0000
0300
1100
0000
0011
0011
0011
0000
2000
0001
,
3100
0000
0002
0000
1103
1100
2100
0000
0000
3012
0000
0000
2103
0000
0000
0000
,
0000
0000
0000
3000
0011
0000
0001
0000
0001
0000
0001
0000
2100
0000
0000
0000
0000
0000
3012
0000
0000
0000
0000
0000
2103
0000
0000
0000
0000
0000
3000
0000
,
0000
0000
0110
0010
0010
0010
2100
0000
0000
0000
3011
0000
0000
0000
0012
0003
,
0120
0030
2100
3000
0012
0000
0003
0001
0100
0000
1000
0100
0000
0000
1001
1001
,
1001
0000
1100
0000
0011
0011
0022
0000
0000
2233
3311
0000
0000
0000
0220
0000
,
0330
2020
3131
0000
0000
0000
2002
0000
3003
0220
1331
0000
0000
0000
0220
0000
,
0330
0000
2002
0000
3113
0000
1000
0000
0100
0000
0010
0000
2002
0000
0000
0000
0000
3003
2200
0000
3311
0000
0000
0000
0000
0000
0000
0000
2002
0000
0000
0000
,
0000
0003
3220
0000
1331
0000
0000
0000
0000
0000
0000
0000
2002
0000
0000
0000
0000
3003
2020
0000
3131
0000
0000
0000
0000
0000
0000
0000
0011
0000
0000
0000
,
1100
0000
1100
1100
1100
0000
0002
0000
0000
0000
0010
0000
0000
0000
2103
0000
,
3210
0000
0000
0000
0312
0000
0000
0000
0213
0000
0000
0000
0000
0000
0000
0000
0000
0000
0000
0000
1300
0000
0000
0000
0000
0000
0000
0000
0220
0330
0110
0000
,
0110
0000
2000
0000
0000
3000
0002
0000
0000
0000
0010
0000
0000
0003
0100
0000
,
0010
0000
0000
0000
0000
0000
0110
0000
0000
0110
0000
0000
0110
0000
0000
1000
0000
0000
0001
0000
0000
0000
0000
0000
1010
0000
0000
0100
0000
0000
0000
0000
0000
0100
0000
0000
0001
0000
0010
0000
0100
0000
1000
0000
0100
0000
0010
0000
,
0001
0000
0010
0000
0100
0000
1001
0000
0000
1001
0000
0000
1001
0000
0000
0010
0000
0000
0002
0000
0000
0000
0000
0000
1003
0000
0000
0100
0000
0000
0010
0000
0000
0000
0000
0000
0001
0000
0000
0010
0000
0000
0200
0000
0000
0000
0000
0000
,
2300
0000
0010
0000
3100
0000
0000
0000
0002
0000
0010
0000
0203
0000
0000
0000
1300
0000
0100
0000
0010
0000
0000
0000
0100
0000
1000
0000
0002
0000
0000
0003
,
2000
0000
0100
3000
0010
0000
0000
0000
0002
0000
0100
0000
0023
0000
0000
0000
1030
0000
0100
0000
0010
0000
0000
0000
0001
0000
1000
0000
0100
0000
0000
0000
,
0010
0100
1000
0000
0020
0000
0000
0000
1030
1000
1000
1000
0000
0000
0001
0001
,
0001
0001
1100
0000
0011
0000
2000
0000
3001
0010
0100
0000
1000
0100
0020
0000
,
0230
0010
0301
0000
0002
0100
0023
0000
1030
0100
0010
0000
0001
1000
0020
0000
,
2030
0100
3010
0000
0002
0100
0023
0000
2030
0001
3100
0000
1000
0100
0010
0000
,
0100
1000
0010
0000
2000
0000
0000
3000
0001
0001
0001
0001
0000
0000
1000
1000
,
0100
0100
0010
0010
0001
0001
2010
0000
0000
3102
0000
0003
2010
0000
0000
0000
,
3010
0000
1100
1000
1000
1000
0012
0000
0000
2103
0000
0000
3012
0000
0000
0003
,
0100
0000
0011
0010
0010
0010
0002
0000
0000
0000
0123
0000
0000
0000
0230
0000
,
2300
0000
3012
0000
0023
0000
0000
0030
1100
0000
0011
1000
0100
0000
0020
0001
,
0130
0000
0120
0000
1130
1100
2100
0000
0000
3210
0000
0000
0321
0000
0000
0000
,
0000
0030
1000
1000
1000
1000
0012
0000
0000
0123
0000
0000
2130
0000
0000
0000
,
3000
0000
0001
0001
0001
0001
2100
0000
0000
0000
0010
0000
0000
0000
3002
0000
,
0023
0000
1230
0000
2300
0000
3000
0001
0010
0000
1000
0100
0000
0000
1001
1001
,
1001
0000
1100
0000
0011
0011
0022
0000
0033
2200
3311
0000
0000
0000
0220
0000
,
0330
0022
1133
0000
0000
0000
2002
0000
3003
0220
1331
0000
0000
0000
0220
0000
,
0330
2002
3113
0001
0010
0100
2002
0000
3003
2200
3311
0000
0000
0000
2200
0000
,
3300
0022
1133
0000
0000
0000
2002
0000
3003
0220
1331
0000
0000
0000
0022
0033
,
1100
0000
0011
0011
0011
0000
2100
0000
0000
0000
0100
0000
0000
3000
0201
0000
,
2310
0000
0000
0000
3201
0000
0000
0000
2310
0000
0000
0000
0000
0000
3000
0000
0001
0000
0000
0000
1100
0000
0001
0000
0010
0000
0000
0000
2200
3300
1100
0000
,
1100
0012
0000
0123
0000
1100
0000
0001
,
0031
0000
0110
0000
0110
0000
1000
1000
1000
1000
0001
0000
0110
0000
0011
0011
,
0011
0000
1100
0000
1100
1100
2200
0000
0000
3300
0000
0000
0000
0000
0000
0000
,
0000
0000
0010
0001
0000
0100
0000
1000
0001
1000
0001
1000
0001
1000
0100
0010
,
0100
0010
0001
0010
0100
2000
0000
0000
3000
0000
0000
0000
0000
0000
0000
0000
,
1000
0000
0100
0000
0010
0000
0001
0000
1000
0000
0100
0000
0020
0000
0000
0000
0000
0000
0000
0030
0100
0000
0000
0000
0100
0000
2000
0000
0000
0000
0000
0000
,
0000
0000
0000
3020
0000
0000
0000
0000
,
0000
0000
0000
0030
0000
0002
0000
0000
,
0000
0000
0000
0000
0000
0000
0003
0000
0000
0000
0000
2000
0000
0000
3000
0002
0000
0000
0000
0000
0000
0000
0000
0003
0000
0000
0000
0000
0000
0000
0000
0000
,
0000
0000
0000
0000
0000
0000
0000
0000
2000
0000
0000
0000
3002
0000
1000
0003
0010
0000
1000
0000
0100
0000
0010
0000
0001
0000
0100
0000
0001
0000
1000
0000
,
0100
1000
0010
1000
0100
0000
0022
0033
0000
0000
0000
0000
2000
3002
0203
0300
,
0020
0030
0002
0000
0000
0200
0323
0030
0200
0000
0300
0000
0000
0000
0000
0000
,
2000
0000
3200
0000
0320
0000
0032
0023
0000
0000
0000
0000
0000
0000
0000
0000
,
0000
0032
0003
0002
0003
0020
0030
0200
2300
3200
0320
0032
0023
0000
0000
0000
,
0000
0000
0000
0030
2000
3200
2300
3000
0200
0320
0032
0023
0030
0200
0000
0300
,
2000
0000
0000
0000
3200
0000
0000
0000
0300
0000
0000
0000
0020
0000
0000
0000
0030
0000
0000
0000
0200
0000
0000
0300
0000
0000
0000
0000
0000
0000
0000
0000
0000
0000
0000
0000
0000
0000
0000
0000
0000
0000
0000
0000
0000
0000
0002
0000
0000
0000
0003
0000
0000
0000
0020
0000
0000
0000
0030
0000
0000
0000
0000
0000
,
0000
0000
0000
0000
0000
0000
0000
0000
0000
0000
0000
2000
0000
0000
3000
0000
0000
0200
0000
0000
0300
0000
0000
0000
0000
0000
0000
0000
0000
0000
0000
0000
0000
0000
0000
0000
0000
0000
0000
0000
0000
0000
1000
0000
0000
0001
0000
0000
,
1000
0001
1000
0001
0100
0010
0100
0010
1001
0000
0110
0110
0000
0011
0000
1100
,
1100
0000
1001
1001
1001
0000
0000
0000
0000
0000
0000
0000
0000
0000
0000
0000
;
